ДМБ

(Роман Качанов) [2000, комедия, DVDRip]
743.2 МБ 3 сида / 0 личей
0 оценок видео
0 оценок аудио
ДМБ (Роман Качанов) [2000, комедия, DVDRip]

ДМБ
Жанр: комедия
Год выпуска: 2000
Продолжительность: 01:23:59
-
Режиссёр: Роман Качанов
В ролях: Станислав Дужников, Александр Белявский, Юозас Будрайтис, Виктор Павлов, Иван Охлобыстин, Сергей Габриэлян, Сергей Арцибашев, Роман Качанов, Петр Коршунков, Дмитрий Неживой
-
Описание: Студент Штык соблазнил профессорскую жену; рабочий парень Бомба спалил до тла родной завод; завсегдатай казино Пуля скрывается от кредиторов — всем одна дорога — на призывной пункт. Там их учат, что в человеке должно быть все прекрасно — погоны, кокарда, исподнее — иначе ты не человек, а млекопитающее.Для настоящего мужчины нет лучше места, чем родная армия. А рано или поздно, «дембельский поезд» — «чух — чух — чух» — доставит тебя домой, и ты бесповоротно поймешь, что до армии был ничем, а теперь, по крайней мере, стал всем.
-
-
-
Качество видео: DVDRip (DVD5)
Формат видео: AVI
Видео: 640x400 (1.60:1), 25 fps, XviD build 64 ~1099 kbps avg, 0.17 bit/pixel
Аудио: 48 kHz, MPEG Layer 3, 2 ch, ~128.00 kbps avg
Format : AVI
Format/Info : Audio Video Interleave
File size : 743 MiB
Duration : 1h 23mn
Overall bit rate : 1 237 Kbps
Writing application : VirtualDubMod 1.5.10.3 | www.virtualdub-fr.org || (build 2550/release)
Writing library : VirtualDubMod build 2550/release
Video
ID : 0
Format : MPEG-4 Visual
Format profile : Advanced Simple@L5
Format settings, BVOP : 1
Format settings, QPel : No
Format settings, GMC : No warppoints
Format settings, Matrix : Custom
Codec ID : XVID
Codec ID/Hint : XviD
Duration : 1h 23mn
Bit rate : 1 100 Kbps
Width : 640 pixels
Height : 400 pixels
Display aspect ratio : 1.600
Frame rate : 25.000 fps
Color space : YUV
Chroma subsampling : 4:2:0
Bit depth : 8 bits
Scan type : Progressive
Compression mode : Lossy
Bits/(Pixel*Frame) : 0.172
Stream size : 661 MiB (89%)
Writing library : XviD 64
Audio
ID : 1
Format : MPEG Audio
Format version : Version 1
Format profile : Layer 3
Mode : Joint stereo
Mode extension : MS Stereo
Codec ID : 55
Codec ID/Hint : MP3
Duration : 1h 23mn
Bit rate mode : Constant
Bit rate : 128 Kbps
Channel(s) : 2 channels
Sampling rate : 48.0 KHz
Compression mode : Lossy
Stream size : 76.5 MiB (10%)
Alignment : Aligned on interleaves
Interleave, duration : 40 ms (1.00 video frame)
Interleave, preload duration : 504 ms

На призывном пункте судьба сводит совсем не похожих друг на друга парней. Один — бывший студент, отправившийся по повестке, после того, как занялся сексом с женой декана прямо на кафедре в аудитории. Другой — рабочий с завода. Вот только работать ему больше негде, потому что по его вине завод сгорел дотла. Третий — в долгах как в шелках, и спасение от занудливых кредиторов одно — армия. В армии их всех научат, как стать настоящим мужчиной.

Скриншоты
  • ДМБ (Роман Качанов) [2000, комедия, DVDRip]
  • ДМБ (Роман Качанов) [2000, комедия, DVDRip]
  • ДМБ (Роман Качанов) [2000, комедия, DVDRip]
  • ДМБ (Роман Качанов) [2000, комедия, DVDRip]
  • ДМБ (Роман Качанов) [2000, комедия, DVDRip]
  • ДМБ (Роман Качанов) [2000, комедия, DVDRip]
  • ДМБ (Роман Качанов) [2000, комедия, DVDRip]
Содержание торрента
  • (2000) ДМБ.avi

Свой комментарий