Физрук

/ Сезон: 1 / Серии: 1-5 из ?? (Фёдор Стуков, Сергей Сенцов) [2014, Комедийный сериал, WEBRip 720p]
2.7 ГБ 9 сидов / 0 личей

Физрук- Год выпуска: 2014
Производство: Россия, Good Story Media, ТНТ
Жанр: Комедийный сериал
Продолжительность: 00:25:00
Режиссёр: Фёдор Стуков, Сергей Сенцов-В ролях: Дмитрий Нагиев, Евгений Кулаков, Юрий Устюгов, Егор Пежемский, Валентин Юнин-Описание: Сериал расскажет о начальнике охраны крупного бизнесмена, которого хозяин увольняет за устаревшие методы работы, приобретенные главным героем во время бурного бандитского прошлого. Новоиспеченный безработный и бывший начальник охраны устраивается физруком в школу, где учится сын его бывшего босса, в надежде наладить с ним отношения и вернуться на прежнюю работу.-Все раздачи сериала
Сэмпл
Скачать промо серию с Google Drive
-Качество: WEBRip 720p
Формат: MKV
Видео кодек: H.264
Аудио кодек: AC-3
Видео: H.264, 1280x720 (16:9), 25.000 fps, ~ 3159 kbps avg, 0.137 bit/pixel
Аудио: AC-3, 192 Kbps, 44.1 KHz, 2ch-Раздача будет обновляться каждый день с понедельника по четверг около 10-11 вечера по мск! MI Общее
Уникальный идентификатор : 220194954876951313629715979996117515243 (0xA5A80176DE8AE04FB89A6BCC4832BBEB)
Полное имя : K:\New films\Fizruk.720p.1.sezon\Физрук-01-720p.mkv
Формат : Matroska
Версия формата : Version 2
Размер файла : 631 Мбайт
Продолжительность : 25 м.
Общий поток : 3419 Кбит/сек
Дата кодирования : UTC 2014-04-07 15:47:19
Программа кодирования : mkvmerge v6.1.0 ('Old Devil') built on Mar 4 2013 09:10:42
Библиотека кодирования : libebml v1.3.0 + libmatroska v1.4.0
Видео
Идентификатор : 1
Формат : AVC
Формат/Информация : Advanced Video Codec
Профиль формата : High@L4.0
Параметр CABAC формата : Да
Параметр ReFrames формата : 8 кадров
Идентификатор кодека : V_MPEG4/ISO/AVC
Продолжительность : 25 м.
Битрейт : 3159 Кбит/сек
Ширина : 1280 пикселей
Высота : 720 пикселей
Соотношение сторон : 16:9
Режим частоты кадров : Постоянный
Частота кадров : 25,000 кадров/сек
Цветовое пространство : YUV
Субдискретизация насыщенности : 4:2:0
Битовая глубина : 8 бит
Тип развёртки : Прогрессивная
Бит/(Пиксели*Кадры) : 0.137
Размер потока : 583 Мбайт (92%)
Библиотека кодирования : x264 core 125
Настройки программы : cabac=1 / ref=8 / deblock=1:-1:-1 / analyse=0x3:0x133 / me=umh / subme=9 / psy=1 / psy_rd=1.00:0.15 / mixed_ref=1 / me_range=16 / chroma_me=1 / trellis=2 / 8x8dct=1 / cqm=0 / deadzone=21,11 / fast_pskip=1 / chroma_qp_offset=-3 / threads=18 / lookahead_threads=3 / sliced_threads=0 / nr=0 / decimate=1 / interlaced=0 / bluray_compat=0 / constrained_intra=0 / bframes=3 / b_pyramid=2 / b_adapt=2 / b_bias=0 / direct=3 / weightb=1 / open_gop=0 / weightp=2 / keyint=100 / keyint_min=10 / scenecut=40 / intra_refresh=0 / rc_lookahead=60 / rc=crf / mbtree=1 / crf=17.0 / qcomp=0.60 / qpmin=0 / qpmax=69 / qpstep=4 / vbv_maxrate=3600 / vbv_bufsize=3600 / crf_max=0.0 / nal_hrd=none / ip_ratio=1.40 / aq=1:1.00
Default : Да
Forced : Нет
Аудио
Идентификатор : 2
Формат : AC-3
Формат/Информация : Audio Coding 3
Расширение режима : CM (complete main)
Параметр Endianness формата : Big
Идентификатор кодека : A_AC3
Продолжительность : 25 м.
Вид битрейта : Постоянный
Битрейт : 192 Кбит/сек
Каналы : 2 канала
Расположение каналов : Front: L R
Частота : 44,1 КГц
Битовая глубина : 16 бит
Метод сжатия : С потерями
Размер потока : 35,4 Мбайт (6%)
Default : Да
Forced : Нет Скриншоты Внимание ! Раздача ведётся путём добавления новых серий Внимание! Раздача ведётся путём добавления новых серий; при каждом добавлении создётся новый торрент. Чтобы начать докачку новой серии, пользователям необходимо сделать следующее:
(1) остановить скачивание,
(2) удалить старый торрент у себя из клиента (старые серии удалять не надо),
(3) скачать новый торрент и запустить его у себя в клиенте вместо старого, при этом указать клиенту путь в старую папку куда и должно происходить скачивание новых серий.
Ваш клиент при этом должен произвести хеширование (проверку) старой папки (если не производит сам - помогите ему сделать это), и будет докачивать только те серии которых у вас ещё нет. Старые серии при этом не удаляются, а продолжают раздаваться!
Eсли вы уже удалили старые серии, то предотвратить повторную закачку старых серий можно, отжав галочку в соответсвующих местах при запуске нового торрента. По возможности, желательно не удалять старые серии как можно дольше чтобы релизёр не столько продолжал раздавать старые серии, а смог сконцентрироваться на новых.

Пожаловаться...
Содержание торрента
  • Fizruk.s01.720p
    • Fizruk.s01e01.WEB-DL.720p.mkv
    • Fizruk.s01e02.WEB-DL.720p.mkv
    • Fizruk.s01e03.WEB-DL.720p.mkv
    • Fizruk.s01e04.WEB-DL.720p.mkv
    • Fizruk.s01e05.WEB-DL.720p.mkv