Великолепный век

/ Muhteşem Yüzyıl / Сезон 4 / Серия: 129 (Мерт Байкал, Ягиз Алп Акайдын) [2013, Турция, Драма, мелодрама, военный, HDTVRip 720p] VO (turok1990)
1.2 ГБ 0 сидов / 0 личей

Великолепный век / Muhteşem Yüzyıl
Год выпуска: 2014
Страна: Турция
Производство: TIMS Productions
Жанр: Драма, мелодрама, военный
Серии: 129
Продолжительность: ~01:52:49
Перевод: любительский одноголосый закадровый (turok1990)
Субтитры: отсутствуют
Режиссёр: Мерт Байкал, Ягиз Алп Акайдын
В ролях: Халит Эргенч, Вахиде Перчин, Нур Айсан, Мехмет Гюнсюр, Беррак Тюзюнатач, Арас Булут Ийнемли, Озан Гювен, Пелин Карахан, Мерве Болугур, Энгин Озтюрк, Тольга Сарыташ, Сарп Аккая, Мельтем Джумбул, Серкан Алтунорак, Тунджель Куртиз, Небахат Чехре, Бурак Озчивит, Окан Ялабык, Филиз Ахмет, Дениз Чакыр, Сельма Эргеч, Селим Байрактар, Гюрбей Илери...
Описание: Сериал повествует о правлении султана Сулеймана Великолепного и его страстной любви к украинской красавице Роксалане. Согласно канонам исламской веры, султан мог иметь четырех законных жен и столько наложниц, сколько сможет содержать. При этом, дети первой жены становились преемниками престола. Роксолана еще девочкой была захвачена в плен и переправлена в Стамбул, где визирь Ибрагим-паша подарил ее султану. Путем интриг, подкупа и умелого обольщения украинская красавица стала женой султана. После принятия ислама она получила имя Хюррем. Сулейман возвел Роксолану в ранг главной жены, и называл ее не иначе как «милой сердцу». Роксолана была не только искусной любовницей, но и умной, интересной собеседницей, хорошо разбирающейся в искусстве и государственных делах. Чтобы реализовать свои амбиции в султанате, Хюррем устраняла всех, кто мог ей в этом помешать. В основу сценария легло несколько исторических романов и средневековых документов.
Качество: HDTVRip
Формат: MP4
Видео кодек: H.264
Аудио кодек: AAC
Видео: MPEG-4 AVC, 1280x720p, 25 fps, ~1400 Kbps
Аудио: Русский, AAC, 44.1 KHz, 2 ch, 192 kbps MI General
Complete name : Muhtesem_Yuzyil_129_HDTVRip_720p.mp4
Format : MPEG-4
Format profile : Base Media
Codec ID : isom
File size : 1.22 GiB
Duration : 1h 52mn
Overall bit rate mode : Variable
Overall bit rate : 1 542 Kbps
Video
ID : 1
Format : AVC
Format/Info : Advanced Video Codec
Format profile : High@L3.1
Format settings, CABAC : Yes
Format settings, ReFrames : 5 frames
Codec ID : avc1
Codec ID/Info : Advanced Video Coding
Duration : 1h 52mn
Bit rate : 1 346 Kbps
Maximum bit rate : 5 136 Kbps
Width : 1 280 pixels
Height : 720 pixels
Display aspect ratio : 16:9
Frame rate mode : Constant
Frame rate : 25.000 fps
Color space : YUV
Chroma subsampling : 4:2:0
Bit depth : 8 bits
Scan type : Progressive
Bits/(Pixel*Frame) : 0.058
Stream size : 1.06 GiB (87%)
Writing library : x264 core 130
Encoding settings : cabac=1 / ref=5 / deblock=1:0:0 / analyse=0x3:0x113 / me=umh / subme=8 / psy=1 / psy_rd=1.00:0.00 / mixed_ref=1 / me_range=16 / chroma_me=1 / trellis=1 / 8x8dct=1 / cqm=0 / deadzone=21,11 / fast_pskip=1 / chroma_qp_offset=-2 / threads=6 / lookahead_threads=1 / sliced_threads=0 / nr=0 / decimate=1 / interlaced=0 / bluray_compat=0 / constrained_intra=0 / bframes=3 / b_pyramid=2 / b_adapt=2 / b_bias=0 / direct=3 / weightb=1 / open_gop=0 / weightp=2 / keyint=250 / keyint_min=25 / scenecut=40 / intra_refresh=0 / rc_lookahead=50 / rc=crf / mbtree=1 / crf=21.0 / qcomp=0.60 / qpmin=0 / qpmax=69 / qpstep=4 / ip_ratio=1.40 / aq=1:1.00
Audio
ID : 2
Format : AAC
Format/Info : Advanced Audio Codec
Format profile : LC
Codec ID : 40
Duration : 1h 52mn
Bit rate mode : Variable
Bit rate : 192 Kbps
Maximum bit rate : 202 Kbps
Channel(s) : 2 channels
Channel positions : Front: L R
Sampling rate : 44.1 KHz
Compression mode : Lossy
Delay relative to video : 80ms
Stream size : 155 MiB (12%)
Language : Russian Сэмпл sample_129_HDTVRip_720p Скриншоты хеш раздачи 129 2E6AAF1D4841B4CA9FC477D7DE2A0425A221C2B6 магнитик 129 magnet:?xt=urn:btih:2E6AAF1D4841B4CA9FC477D7DE2A0425A221C2B6 Ссылка на предыдущие и альтернативные раздачи

Пожаловаться...
Содержание торрента
  • Muhtesem_Yuzyil_129_HDTVRip_720p.mp4

Похожие торренты
Свой комментарий