Как я теперь люблю

/ How I Live Now (Кевин МакДональд / Kevin Macdonald) [2013, Великобритания, Фэнтези, драма, приключения, HDRip] + Sub Rus
1.1 ГБ 0 сидов / 0 личей
0 оценок видео
0 оценок аудио
Как я теперь люблю / How I Live Now (Кевин МакДональд / Kevin Macdonald) [2013, Великобритания, Фэнтези, драма, приключения, HDRip] + Sub Rus

Как я теперь люблю / How I Live Now
Страна: Великобритания
Жанр: Фэнтези, драма, приключения
Год выпуска: 2013
Продолжительность: 01:41:12
Перевод: Субтитры
Cубтитры: русские
Режиссер: Кевин МакДональд / Kevin Macdonald
В ролях: Сирша Ронан, Том Холлэнд, Джордж МакКэй, Харли Бёрд, Дэнни МакЭвой, Анна Чэнселлор, Джонатан Рагман, Кори Джонсон, Даррен Морфитт, Стелла Гонет
Описание: Недалекое будущее — мир на грани Третьей мировой войны. Пятнадцатилетнюю Дейзи (Сирша Ронан) — вздорного ершистого панка, в голове которой толкутся категоричные мысли-правила из журналов (рискуй, выйди из зоны комфорта! сосредоточься на своей цели! сила воли и самодисциплина приводят к успеху! ты жалкая неудачница!), — отец отправляет к едва знакомым родственникам в английскую деревню. Тут она стремительно влюбляется в своего кузена Эдди (Джордж МакКэй) — сильного и уверенного заклинателя коров и прочей живности, способного проникать в чужие мысли. Но ядерная бомба все-таки взрывается и начинается война, а влюбленных разлучают обстоятельства.
Качество видео: HDRip
Формат видео: AVI
Видео: XVID, 720x388, 23,796 fps, 1623 Kbps
Аудио: AC-3, 48.0 KHz, 6 channels, 384 Kbps MediaInfo Format : AVI
Format/Info : Audio Video Interleave
Format profile : OpenDML
File size : 1.15 GiB
Duration : 1h 41mn
Overall bit rate : 1 623 Kbps
Movie name : www.RARBG.com
Writing application : Lavf55.19.100
Video
ID : 0
Format : MPEG-4 Visual
Format profile : Advanced Simple@L5
Format settings, BVOP : 5
Format settings, QPel : No
Format settings, GMC : No warppoints
Format settings, Matrix : Default (H.263)
Codec ID : XVID
Codec ID/Hint : XviD
Duration : 1h 41mn
Bit rate : 1 225 Kbps
Width : 720 pixels
Height : 388 pixels
Display aspect ratio : 1.85:1
Original display aspect ratio : 1.85:1
Frame rate : 23.976 fps
Color space : YUV
Chroma subsampling : 4:2:0
Bit depth : 8 bits
Scan type : Progressive
Compression mode : Lossy
Bits/(Pixel*Frame) : 0.183
Stream size : 887 MiB (76%)
Writing library : XviD 64
Audio
ID : 1
Format : AC-3
Format/Info : Audio Coding 3
Codec ID :
00001000-0000-0020-8000-00AA00389B71
Duration : 1h 41mn
Bit rate : 384 Kbps
Channel(s) : 6 channels
Channel positions : Front: L C R, Back: L R, LFE
Sampling rate : 48.0 KHz
Bit depth : 16 bits
Compression mode : Lossy
Stream size : 278 MiB (24%)
Interleave, duration : 32 ms (0.77 video frame)
Interleave, preload duration : 32 ms Скриншот c названием фильма Скриншоты Пример субтитров 25
00:02:38,925 --> 00:02:40,859
<i>Привет.</i>
26
00:02:42,896 --> 00:02:44,763
Что?
27
00:02:44,765 --> 00:02:48,166
- Привет.
- Ах, да.
28
00:02:48,168 --> 00:02:50,669
Привет.
Ты кто?
29
00:02:50,671 --> 00:02:52,904
- Айзек.
- Никто не называет меня Элизабет.
30
00:02:52,906 --> 00:02:54,906
Кроме отца, а он козёл.
31
00:02:54,908 --> 00:02:57,208
Так что, если не возражаешь, зови меня Дейзи.
32
00:02:57,210 --> 00:02:59,477
Дейзи, чудесно.
33
00:02:59,479 --> 00:03:01,279
Где твоя мама?
34
00:03:01,281 --> 00:03:03,081
На работе.
Эм, я вместо неё.
35
00:03:04,016 --> 00:03:05,784
Хочешь, я возьму?
36
00:03:05,786 --> 00:03:06,918
Зачем?
37
00:03:06,920 --> 00:03:08,787
Ну, я не знаю.
Он... он...
38
00:03:08,789 --> 00:03:10,955
- Может, она тяжёлая.
- Да, тяжёлая.
39
00:03:12,458 --> 00:03:14,025
Ладно.
40
00:03:14,027 --> 00:03:17,295
Ну, нам нужно... наверное,
нам нужно пойти к машине.
41
00:03:17,297 --> 00:03:20,098
Да, конечно, пошли к машине.
42
00:03:22,335 --> 00:03:24,936
<i>-...Высокий уровень безопасности.
Пожалуйста, оставайтесь бдительными.</i>
43
00:03:24,938 --> 00:03:27,906
<i>Немедленно сообщайте о любом подозрительном поведении</i>
44
00:03:27,908 --> 00:03:29,307
<i>службе безопасности.</i>
45
00:03:30,643 --> 00:03:32,310
Куда мы идём?
46
00:03:32,312 --> 00:03:35,280
О, они берут 15 фунтов стерлингов
за полчаса парковки.

Пожаловаться...
Содержание торрента
  • How I Live Now (2013)
    • How I Live Now (2013).avi
    • How I Live Now (2013).srt

Похожие торренты