(Soundtrack)

Афера по-американски

/ American Hustle - 2013, FLAC (tracks+.cue), lossless
344.7 МБ 1 сид / 0 личей

Афера по-американски / American Hustle-- -Жанр: Soundtrack || Год выпуска диска: 2013 || Страна-производитель диска: США || Аудио кодек: FLAC (*.flac) || Тип рипа: tracks+.cue || Битрейт аудио: lossless || Продолжительность: 00:55:09 || Источник: What.cd (heybrochacho) || Наличие сканов в содержимом раздачи: нет-Треклист:
01. Duke Ellington - Jeep's Blues [04:44]
02. Elton John - Goodbye Yellow Brick Road [03:16]
03. Mayssa Karaa - White Rabbit (Arabic Version) [02:34]
04. Electric Light Orchestra - 10538 Overture [04:41]
05. Wings - Live and Let Die [03:13]
06. The Bee Gees - How Can You Mend a Broken Heart [03:58]
07. Donna Summer - I Feel Love [05:57]
08. Harold Melvin & The Blue Notes - Don't Leave Me This Way [06:09]
09. Tom Jones - Delilah [03:23]
10. Jack Jones - I've Got Your Number [01:52]
11. Electric Light Orchestra - Long Black Road [03:21]
12. America - A Horse with No Name [04:13]
13. Jeff Lynne - Stream of Stars [02:46]
14. Chris Stills - Live to Live [03:08]
15. Danny Elfman - Irving Montage [01:56] Лог создания рипа Exact Audio Copy V1.0 beta 3 from 29. August 2011
EAC extraction logfile from 27. December 2013, 16:29
Various Artists / American Hustle: Original Motion Picture Soundtrack
Used drive : OPTIARC DVD RW AD-5670S Adapter: 1 ID: 0
Read mode : Secure
Utilize accurate stream : Yes
Defeat audio cache : Yes
Make use of C2 pointers : No
Read offset correction : 48
Overread into Lead-In and Lead-Out : No
Fill up missing offset samples with silence : Yes
Delete leading and trailing silent blocks : No
Null samples used in CRC calculations : Yes
Used interface : Native Win32 interface for Win NT & 2000
Gap handling : Appended to previous track
Used output format : User Defined Encoder
Selected bitrate : 1024 kBit/s
Quality : High
Add ID3 tag : No
Command line compressor : C:\flac.exe
Additional command line options : -8 -V -T "ARTIST=%artist%" -T "TITLE=%title%" -T "ALBUM=%albumtitle%" -T "DATE=%year%" -T "TRACKNUMBER=%tracknr%" -T "GENRE=%genre%" -T "PERFORMER=%albuminterpret%" -T "COMPOSER=%composer%" %haslyrics%--tag-from-file=LYRICS="%lyricsfile%"%haslyrics% -T "ALBUMARTIST=%albumartist%" -T "DISCNUMBER=%cdnumber%" -T "TOTALDISCS=%totalcds%" -T "TOTALTRACKS=%numtracks%" -T "COMMENT=%comment%" %source% -o %dest%
TOC of the extracted CD
Track | Start | Length | Start sector | End sector
---------------------------------------------------------
1 | 0:00.00 | 4:43.74 | 0 | 21298
2 | 4:43.74 | 3:15.65 | 21299 | 35988
3 | 7:59.64 | 2:33.47 | 35989 | 47510
4 | 10:33.36 | 4:40.53 | 47511 | 68563
5 | 15:14.14 | 3:13.10 | 68564 | 83048
6 | 18:27.24 | 3:57.71 | 83049 | 100894
7 | 22:25.20 | 5:56.52 | 100895 | 127646
8 | 28:21.72 | 6:09.16 | 127647 | 155337
9 | 34:31.13 | 3:22.65 | 155338 | 170552
10 | 37:54.03 | 1:52.02 | 170553 | 178954
11 | 39:46.05 | 3:21.22 | 178955 | 194051
12 | 43:07.27 | 4:12.70 | 194052 | 213021
13 | 47:20.22 | 2:45.46 | 213022 | 225442
14 | 50:05.68 | 3:07.70 | 225443 | 239537
15 | 53:13.63 | 1:55.38 | 239538 | 248200
Track 1
Filename C:\EAC\Various Artists - 2013 - American Hustle- Original Motion Picture Soundtrack [FLAC]\01 - Duke Ellington - Jeep's Blues.wav
Pre-gap length 0:00:02.00
Peak level 94.8 %
Extraction speed 3.2 X
Track quality 100.0 %
Test CRC 19C566D5
Copy CRC 19C566D5
Track not present in AccurateRip database
Copy OK
Track 2
Filename C:\EAC\Various Artists - 2013 - American Hustle- Original Motion Picture Soundtrack [FLAC]\02 - Elton John - Goodbye Yellow Brick Road.wav
Pre-gap length 0:00:01.53
Peak level 94.3 %
Extraction speed 2.6 X
Track quality 99.9 %
Test CRC 5B62F3A5
Copy CRC 5B62F3A5
Track not present in AccurateRip database
Copy OK
Track 3
Filename C:\EAC\Various Artists - 2013 - American Hustle- Original Motion Picture Soundtrack [FLAC]\03 - Mayssa Karaa - White Rabbit.wav
Pre-gap length 0:00:01.46
Peak level 94.3 %
Extraction speed 3.3 X
Track quality 100.0 %
Test CRC D2DF4F4B
Copy CRC D2DF4F4B
Track not present in AccurateRip database
Copy OK
Track 4
Filename C:\EAC\Various Artists - 2013 - American Hustle- Original Motion Picture Soundtrack [FLAC]\04 - Electric Light Orchestra - 10538 Overture.wav
Pre-gap length 0:00:01.38
Peak level 89.0 %
Extraction speed 3.9 X
Track quality 100.0 %
Test CRC 75BC8B06
Copy CRC 75BC8B06
Track not present in AccurateRip database
Copy OK
Track 5
Filename C:\EAC\Various Artists - 2013 - American Hustle- Original Motion Picture Soundtrack [FLAC]\05 - Wings - Live And Let Die.wav
Pre-gap length 0:00:00.89
Peak level 94.3 %
Extraction speed 3.9 X
Track quality 100.0 %
Test CRC C3BC079C
Copy CRC C3BC079C
Track not present in AccurateRip database
Copy OK
Track 6
Filename C:\EAC\Various Artists - 2013 - American Hustle- Original Motion Picture Soundtrack [FLAC]\06 - Bee Gees - How Can You Mend A Broken Heart.wav
Pre-gap length 0:00:01.36
Peak level 95.7 %
Extraction speed 4.3 X
Track quality 100.0 %
Test CRC CB744157
Copy CRC CB744157
Track not present in AccurateRip database
Copy OK
Track 7
Filename C:\EAC\Various Artists - 2013 - American Hustle- Original Motion Picture Soundtrack [FLAC]\07 - Donna Summer - I Feel Love.wav
Pre-gap length 0:00:01.37
Peak level 94.3 %
Extraction speed 4.8 X
Track quality 100.0 %
Test CRC 4376C90F
Copy CRC 4376C90F
Track not present in AccurateRip database
Copy OK
Track 8
Filename C:\EAC\Various Artists - 2013 - American Hustle- Original Motion Picture Soundtrack [FLAC]\08 - Harold Melvin & The Blue Notes - Don't Leave Me This Way.wav
Pre-gap length 0:00:01.37
Peak level 94.3 %
Extraction speed 5.1 X
Track quality 100.0 %
Test CRC 37000FAA
Copy CRC 37000FAA
Track not present in AccurateRip database
Copy OK
Track 9
Filename C:\EAC\Various Artists - 2013 - American Hustle- Original Motion Picture Soundtrack [FLAC]\09 - Tom Jones - Delilah.wav
Pre-gap length 0:00:01.38
Peak level 94.4 %
Extraction speed 4.0 X
Track quality 99.9 %
Test CRC 856B510B
Copy CRC 856B510B
Track not present in AccurateRip database
Copy OK
Track 10
Filename C:\EAC\Various Artists - 2013 - American Hustle- Original Motion Picture Soundtrack [FLAC]\10 - Jack Jones - I've Got Your Number.wav
Pre-gap length 0:00:01.37
Peak level 94.3 %
Extraction speed 4.5 X
Track quality 100.0 %
Test CRC 79329CDE
Copy CRC 79329CDE
Track not present in AccurateRip database
Copy OK
Track 11
Filename C:\EAC\Various Artists - 2013 - American Hustle- Original Motion Picture Soundtrack [FLAC]\11 - Electric Light Orchestra - Long Black Road.wav
Pre-gap length 0:00:01.37
Peak level 94.3 %
Extraction speed 5.2 X
Track quality 100.0 %
Test CRC 42E6949D
Copy CRC 42E6949D
Track not present in AccurateRip database
Copy OK
Track 12
Filename C:\EAC\Various Artists - 2013 - American Hustle- Original Motion Picture Soundtrack [FLAC]\12 - America - A Horse With No Name.wav
Pre-gap length 0:00:01.52
Peak level 94.3 %
Extraction speed 4.6 X
Track quality 99.9 %
Test CRC E654E1F0
Copy CRC E654E1F0
Track not present in AccurateRip database
Copy OK
Track 13
Filename C:\EAC\Various Artists - 2013 - American Hustle- Original Motion Picture Soundtrack [FLAC]\13 - Jeff Lynne - Stream Of Stars.wav
Pre-gap length 0:00:01.70
Peak level 94.3 %
Extraction speed 5.3 X
Track quality 100.0 %
Test CRC 5B61EEC8
Copy CRC 5B61EEC8
Track not present in AccurateRip database
Copy OK
Track 14
Filename C:\EAC\Various Artists - 2013 - American Hustle- Original Motion Picture Soundtrack [FLAC]\14 - Chris Stills - Live To Live.wav
Pre-gap length 0:00:01.66
Peak level 94.3 %
Extraction speed 5.5 X
Track quality 100.0 %
Test CRC 97731F07
Copy CRC 97731F07
Track not present in AccurateRip database
Copy OK
Track 15
Filename C:\EAC\Various Artists - 2013 - American Hustle- Original Motion Picture Soundtrack [FLAC]\15 - Danny Elfman - Irving Montage.wav
Pre-gap length 0:00:01.37
Peak level 94.3 %
Extraction speed 3.7 X
Track quality 99.9 %
Test CRC 5AF5C6F0
Copy CRC 5AF5C6F0
Track not present in AccurateRip database
Copy OK
None of the tracks are present in the AccurateRip database
No errors occurred
End of status report
---- CUETools DB Plugin V2.1.3
[CTDB TOCID: CGK0byEZ.3ihGMaD3vn5iDiev0g-] found, Submit result: already submitted
[1577a28e] (1/1) Accurately ripped
==== Log checksum 8152C53ADF4BE0419B9860EB4BAC9CD8AAE5AF7BB50D90FDB631FC1C8339D9FC ==== Содержание индексной карты (.CUE) REM GENRE Soundtrack
REM DATE 2013
REM DISCID D70CED0F
REM COMMENT "ExactAudioCopy v1.0b3"
CATALOG 0888430295728
PERFORMER "Various Artists"
TITLE "American Hustle: Original Motion Picture Soundtrack"
FILE "01 - Duke Ellington - Jeep's Blues.flac" WAVE
TRACK 01 AUDIO
TITLE "Jeep's Blues"
PERFORMER "Duke Ellington"
ISRC USSM15600482
INDEX 01 00:00:00
TRACK 02 AUDIO
TITLE "Goodbye Yellow Brick Road"
PERFORMER "Elton John"
ISRC GBAMB9500058
INDEX 00 04:42:34
FILE "02 - Elton John - Goodbye Yellow Brick Road.flac" WAVE
INDEX 01 00:00:00
TRACK 03 AUDIO
TITLE "White Rabbit"
PERFORMER "Mayssa Karaa"
ISRC US4DG1300072
INDEX 00 03:14:30
FILE "03 - Mayssa Karaa - White Rabbit.flac" WAVE
INDEX 01 00:00:00
TRACK 04 AUDIO
TITLE "10538 Overture"
PERFORMER "Electric Light Orchestra"
ISRC USMB51200020
INDEX 00 02:32:18
FILE "04 - Electric Light Orchestra - 10538 Overture.flac" WAVE
INDEX 01 00:00:00
TRACK 05 AUDIO
TITLE "Live And Let Die"
PERFORMER "Wings"
ISRC GBCCS0100674
INDEX 00 04:39:61
FILE "05 - Wings - Live And Let Die.flac" WAVE
INDEX 01 00:00:00
TRACK 06 AUDIO
TITLE "How Can You Mend A Broken Heart"
PERFORMER "Bee Gees"
ISRC USRH10903949
INDEX 00 03:11:58
FILE "06 - Bee Gees - How Can You Mend A Broken Heart.flac" WAVE
INDEX 01 00:00:00
TRACK 07 AUDIO
TITLE "I Feel Love"
PERFORMER "Donna Summer"
ISRC USPR39402393
INDEX 00 03:56:43
FILE "07 - Donna Summer - I Feel Love.flac" WAVE
INDEX 01 00:00:00
TRACK 08 AUDIO
TITLE "Don't Leave Me This Way"
PERFORMER "Harold Melvin & The Blue Notes"
ISRC USSM10020630
INDEX 00 05:55:24
FILE "08 - Harold Melvin & The Blue Notes - Don't Leave Me This Way.flac" WAVE
INDEX 01 00:00:00
TRACK 09 AUDIO
TITLE "Delilah"
PERFORMER "Tom Jones"
ISRC GBF076820060
INDEX 00 06:07:62
FILE "09 - Tom Jones - Delilah.flac" WAVE
INDEX 01 00:00:00
TRACK 10 AUDIO
TITLE "I've Got Your Number"
PERFORMER "Jack Jones"
ISRC US4DG1300076
INDEX 00 03:21:37
FILE "10 - Jack Jones - I've Got Your Number.flac" WAVE
INDEX 01 00:00:00
TRACK 11 AUDIO
TITLE "Long Black Road"
PERFORMER "Electric Light Orchestra"
ISRC USMB51200085
INDEX 00 01:50:49
FILE "11 - Electric Light Orchestra - Long Black Road.flac" WAVE
INDEX 01 00:00:00
TRACK 12 AUDIO
TITLE "A Horse With No Name"
PERFORMER "America"
ISRC USWB19901792
INDEX 00 03:19:58
FILE "12 - America - A Horse With No Name.flac" WAVE
INDEX 01 00:00:00
TRACK 13 AUDIO
TITLE "Stream Of Stars"
PERFORMER "Jeff Lynne"
ISRC USMB51200086
INDEX 00 04:11:17
FILE "13 - Jeff Lynne - Stream Of Stars.flac" WAVE
INDEX 01 00:00:00
TRACK 14 AUDIO
TITLE "Live To Live"
PERFORMER "Chris Stills"
ISRC US4DG1300074
INDEX 00 02:43:71
FILE "14 - Chris Stills - Live To Live.flac" WAVE
INDEX 01 00:00:00
TRACK 15 AUDIO
TITLE "Irving Montage"
PERFORMER "Danny Elfman"
ISRC US4DG1300075
INDEX 00 03:06:42
FILE "15 - Danny Elfman - Irving Montage.flac" WAVE
INDEX 01 00:00:00 -MP3: (Soundtrack) Афера по-американски / American Hustle - 2013, MP3, 320 kbps-

Содержание торрента
  • VA - American Hustle - 2013 [FLAC]
    • 01 - Duke Ellington - Jeep's Blues.flac
    • 02 - Elton John - Goodbye Yellow Brick Road.flac
    • 03 - Mayssa Karaa - White Rabbit.flac
    • 04 - Electric Light Orchestra - 10538 Overture.flac
    • 05 - Wings - Live And Let Die.flac
    Показать все файлы

Свой комментарий