(Classical) Pierre Attaignant - Danceries - Doulce Memoire, Denis Raisin Dadre - 2010, FLAC (image+.cue) lossless
321.8 МБ 0 сидов / 0 личей

Pierre Attaignant - Danceries - Doulce Mémoire, Denis Raisin Dadre
Жанр: Classical
Страна-производитель диска: Belgium
Год издания диска: 2010
Издатель (лейбл): Ricercar
Номер по каталогу: RIC 294
Дата записи: 2009
Аудиокодек: FLAC
Тип рипа: image+.cue
Битрейт аудио: lossless
Продолжительность: 73:53
Источник: собственный рип
Наличие сканов в содержимом раздачи: да
Треклист:
[1] Basse dance La Magdalena & Tourdion
[2] Première suytte de Bransles d'Escosse
[3] Pavane, Pavane La sguizera & Gaillardes
[4] Prélude
[5] Claudin de Sermisy: Amour pense que je dorme
[6] Pavane 18
[7] Allemande Et d' où venez vous, Madame Lucette & Allemandes 2,6,5,4
[8] Branle gay Que je chatoulle ta fossette & Branles gays 28,23,42,7
[9] Claudin de Sermisy: Auprès de vous
[10] Basse dance Auprès de vous
[11] Basse dance Le corps s'en va
[12] Pierre Sandrin: Réveillez vous, mes damoyselles
[13] Pavane premiere et Gaillarde première
[14] Basse dance La Brosse
[15] Bransles de Poictou
[16] Bransles de Bourgogne
[17] Pavane
[18] Claudin de Sermisy: Languir me fais
[19] Gaillarde
[20] Pavane 8, Pavane des Dieux & Gaillarde
[21] Pierre Sandrin: M'amye est tant honneste
[22] Pavane M'amye est tant honneste & Gaillarde
[23] Pavane 19
[24] Basse dances 3 & 1, Tourdions 8,9,39
[25] Basse dance La gatta en italien & Basse dance La Scarpa my faict mal
Пьер Аттеньян (1494 – 1551 или 1552) был не музыкантом, а одним из самых видных издателей музыкальной литературы XVI века. Опубликовал 36 музыкальных коллекций как духовной, так и светской музыки (шансон, танцы).
Исполнители:
Doulce Mémoire
Denis Raisin Dadre direction Лог создания рипа Exact Audio Copy V1.0 beta 3 from 29. August 2011
EAC extraction logfile from 17. December 2013, 21:43
Doulce Mémoire, Denis Raisin Dadre / Attaingnant - Danceries
Used drive : HL-DT-STDVDRAM GSA-4083N Adapter: 1 ID: 0
Read mode : Secure
Utilize accurate stream : Yes
Defeat audio cache : Yes
Make use of C2 pointers : No
Read offset correction : 667
Overread into Lead-In and Lead-Out : No
Fill up missing offset samples with silence : Yes
Delete leading and trailing silent blocks : No
Null samples used in CRC calculations : Yes
Used interface : Native Win32 interface for Win NT & 2000
Used output format : User Defined Encoder
Selected bitrate : 896 kBit/s
Quality : High
Add ID3 tag : No
Command line compressor : C:\Program Files\Exact Audio Copy\Flac\flac.exe
Additional command line options : -V -8 %source%
TOC of the extracted CD
Track | Start | Length | Start sector | End sector
---------------------------------------------------------
1 | 0:00.00 | 3:06.12 | 0 | 13961
2 | 3:06.12 | 3:27.27 | 13962 | 29513
3 | 6:33.39 | 5:25.33 | 29514 | 53921
4 | 11:58.72 | 1:31.27 | 53922 | 60773
5 | 13:30.24 | 2:55.41 | 60774 | 73939
6 | 16:25.65 | 1:14.23 | 73940 | 79512
7 | 17:40.13 | 4:45.50 | 79513 | 100937
8 | 22:25.63 | 4:11.38 | 100938 | 119800
9 | 26:37.26 | 1:44.28 | 119801 | 127628
10 | 28:21.54 | 2:15.14 | 127629 | 137767
11 | 30:36.68 | 1:20.34 | 137768 | 143801
12 | 31:57.27 | 1:24.52 | 143802 | 150153
13 | 33:22.04 | 3:44.21 | 150154 | 166974
14 | 37:06.25 | 2:54.56 | 166975 | 180080
15 | 40:01.06 | 3:50.42 | 180081 | 197372
16 | 43:51.48 | 3:04.24 | 197373 | 211196
17 | 46:55.72 | 3:01.24 | 211197 | 224795
18 | 49:57.21 | 2:13.74 | 224796 | 234844
19 | 52:11.20 | 1:06.51 | 234845 | 239845
20 | 53:17.71 | 4:00.66 | 239846 | 257911
21 | 57:18.62 | 1:48.25 | 257912 | 266036
22 | 59:07.12 | 1:46.63 | 266037 | 274049
23 | 60:54.00 | 1:24.67 | 274050 | 280416
24 | 62:18.67 | 6:02.34 | 280417 | 307600
25 | 68:21.26 | 5:31.61 | 307601 | 332486
Range status and errors
Selected range
Filename J:\New Music\Attaingnant - Danceries\Attaingnant - Danceries.wav
Peak level 100.0 %
Extraction speed 2.7 X
Range quality 100.0 %
Test CRC D2596A08
Copy CRC D2596A08
Copy OK
No errors occurred
AccurateRip summary
Track 1 accurately ripped (confidence 5) [537D64A1] (AR v1)
Track 2 accurately ripped (confidence 5) [76D25EE9] (AR v1)
Track 3 accurately ripped (confidence 5) [6C13DD1C] (AR v1)
Track 4 accurately ripped (confidence 5) [2EA9458A] (AR v1)
Track 5 accurately ripped (confidence 5) [6F0B35AD] (AR v1)
Track 6 accurately ripped (confidence 5) [4430B3F5] (AR v1)
Track 7 accurately ripped (confidence 5) [7091EF84] (AR v1)
Track 8 accurately ripped (confidence 5) [BC955173] (AR v1)
Track 9 accurately ripped (confidence 5) [82617059] (AR v1)
Track 10 accurately ripped (confidence 5) [4752637A] (AR v1)
Track 11 accurately ripped (confidence 5) [C86506CF] (AR v1)
Track 12 accurately ripped (confidence 5) [9F8B194D] (AR v1)
Track 13 accurately ripped (confidence 5) [FEF2B171] (AR v1)
Track 14 accurately ripped (confidence 5) [73E19773] (AR v1)
Track 15 accurately ripped (confidence 5) [0312798C] (AR v1)
Track 16 accurately ripped (confidence 5) [EEB3B757] (AR v1)
Track 17 accurately ripped (confidence 5) [B6C6F08D] (AR v1)
Track 18 accurately ripped (confidence 5) [AEB522D3] (AR v1)
Track 19 accurately ripped (confidence 5) [01C81940] (AR v1)
Track 20 accurately ripped (confidence 5) [DAF59153] (AR v1)
Track 21 accurately ripped (confidence 5) [410BC95D] (AR v1)
Track 22 accurately ripped (confidence 5) [5370C795] (AR v1)
Track 23 accurately ripped (confidence 5) [D8C1872A] (AR v1)
Track 24 accurately ripped (confidence 4) [6DAFDEA8] (AR v1)
Track 25 accurately ripped (confidence 4) [99622E64] (AR v1)
All tracks accurately ripped
End of status report
==== Log checksum 9FF06769BCF7ABDE0AA00A254798F21E77FFCD5D63793F544CE2350A1C32D22F ====

Содержание торрента

Свой комментарий