Арабское Приключение

/ Арабские Приключения / Arabian Adventure (Кевин Коннор / Kevin Connor) [1979, Великобритания, фэнтези, приключения, DVDRip] VO (Ирэн) + Original Eng
1.4 ГБ 0 сидов / 0 личей
0 оценок видео
0 оценок аудио

Арабское Приключение / Arabian Adventure
Страна: Великобритания
Жанр: фэнтези, приключения
Год выпуска: 1979
Продолжительность: 01:33:56
Перевод: Одноголосый закадровый Ирэн
Cубтитры: нет
Оригинальная аудиодорожка: английский
Режиссер: Кевин Коннор / Kevin Connor
В ролях: Кристофер Ли / Christopher Lee... Alquazar
Майло О’Ши / Milo O'Shea... Khasim
Оливер Тобиас / Oliver Tobias... Prince Hasan
Эмма Сэммс / Emma Samms... Princess Zuleira
Пунит Сира / Puneet Sira... Majeed
Питер Кушинг / Peter Cushing... Wazir Al Wuzara
Капюсин / Capucine... Vahishta
Микки Руни / Mickey Rooney... Daad El Shur
Джон Уаймэн / John Wyman... Bahloul
Джон Ратценбергер / John Ratzenberger... Achmed
Описание: злой волшебник разлучил прекрасного принца с его возлюбленной. Пока принц ищет свою девушку, маг ведет поиски волшебной розы, которая сделает его непобедимым. Он и не подозревает о том, что добрый уличный мальчишка подарил эту розу несчастному принцу. Он знал, что с ее помощью можно не только сделать мага непобедимым, но и уничтожить его колдовство…
Сэмпл: http://multi-up.com/936636
Качество видео: DVDRip
Формат видео: AVI
Видео: 688x528 (1.30:1), 25 fps, XviD build 50 ~1702 kbps avg, 0.19 bit/pixel - за исходник спасибо ghoulie
Аудио 1: 48 kHz, AC3 Dolby Digital, 2/0 (L,R) ch, ~192 kbps - перевод Ирэн оцифрован и синхронизирован мной с коллекционной VHS
Аудио 2: 48 kHz, AC3 Dolby Digital, 2/0 (L,R) ch, ~192 kbps - english
переводы Ирэн из моей коллекции
Прошлым Летом в Мариенбаде / L’annee Derniere а Marienbad , 1961 (дорожка)
Двойная Жизнь Вероники / La Double Vie de Veronique , 1991 (DVDRip.avi)
Под Вишневой Луной / Under the Cherry Moon , 1986 (DVD5)
Имя Розы / The Name of the Rose / Il Nome Della Rosa , 1986 - DVDRip.avi и BDRip и BDRip-AVC и BDRemux
Вне Власти Медицины / Beyond Therapy , 1987 - Rip и DVD5
Под небом африки , 1958
Мэри Капитан Пиратов / Le avventure di Mary Read , 1961 MediaInfo Формат : AVI
Формат/Информация : Audio Video Interleave
Размер файла : 1,38 Гбайт
Продолжительность : 1 ч. 33 м.
Общий поток : 2102 Кбит/сек
Название фильма : Arabian Adventure (1979)
Программа кодирования : VirtualDubMod 1.5.10.3 | www.virtualdub-fr.org || (build 2550/release)
Библиотека кодирования : VirtualDubMod build 2550/release
Правообладатель : sasikainen
Видео
Идентификатор : 0
Формат : MPEG-4 Visual
Профиль формата : Advanced Simple@L5
Параметр BVOP формата : 1
Параметр QPel формата : Нет
Параметр GMC формата : Без точки перехода
Параметр матрицы формата : Default (H.263)
Идентификатор кодека : XVID
Идентификатор кодека/Подсказка : XviD
Продолжительность : 1 ч. 33 м.
Битрейт : 1704 Кбит/сек
Ширина : 688 пикселей
Высота : 528 пикселей
Соотношение сторон : 4:3
Частота кадров : 25,000 кадров/сек
Цветовое пространство : YUV
Субдискретизация насыщенности : 4:2:0
Битовая глубина : 8 бит
Тип развёртки : Прогрессивная
Метод сжатия : С потерями
Бит/(Пиксели*Кадры) : 0.188
Размер потока : 1,12 Гбайт (81%)
Библиотека кодирования : XviD 1.2.1 (UTC 2008-12-04)
Аудио #1
Идентификатор : 1
Формат : AC-3
Формат/Информация : Audio Coding 3
Расширение режима : CM (complete main)
Параметр Endianness формата : Big
Идентификатор кодека : 2000
Продолжительность : 1 ч. 33 м.
Вид битрейта : Постоянный
Битрейт : 192 Кбит/сек
Каналы : 2 канала
Расположение каналов : Front: L R
Частота : 48,0 КГц
Битовая глубина : 16 бит
Метод сжатия : С потерями
Размер потока : 129 Мбайт (9%)
Выравнивание : Разделение по промежуткам
Продолжительность промежутка : 40 мс. (1,00 видеокадр)
Время предзагрузки промежутка : 500 мс.
Заголовок : Iren
Аудио #2
Идентификатор : 2
Формат : AC-3
Формат/Информация : Audio Coding 3
Расширение режима : CM (complete main)
Параметр Endianness формата : Big
Идентификатор кодека : 2000
Продолжительность : 1 ч. 33 м.
Вид битрейта : Постоянный
Битрейт : 192 Кбит/сек
Каналы : 2 канала
Расположение каналов : Front: L R
Частота : 48,0 КГц
Битовая глубина : 16 бит
Метод сжатия : С потерями
Размер потока : 129 Мбайт (9%)
Выравнивание : Разделение по промежуткам
Продолжительность промежутка : 40 мс. (1,00 видеокадр)
Время предзагрузки промежутка : 500 мс.
Заголовок : english Скриншоты

Городом Джадур жестоко правит злой волшебник халиф Алказар. При помощи зеркала Луны, в котором заключена его душа, чародей узнаёт о том, что происходит вокруг. Однако для полного всемогущества халифу не хватает розы Элиля. В это время в город приезжает принц Хасан, который наслышан о красоте приёмной дочери Алказара Зулейры.
Волшебник даёт юноше ковёр-самолёт, но в попутчики даёт ему соглядатая Хасима. Но в последний момент к ним присоединяется мальчик Маджид, которому помогает принцесса джиннов Вахиста.
Когда путешественники прибывают на остров Элиль, то им приходится столкнуться с разнообразными препятствиями: коварными джиннами, кузнецом, управляющим механическими монстрами и болотом, где путников хватают руки. Маджиду удаётся добыть розу, однако в этот момент Хасим убивает Хасана и с розой пытается улететь к Алказару. Однако в последний момент ручная обезьянка мальчика отнимает у мошенника цветок. Маджид обращается к Вахисте за помощью, и та оживляет принца. Помимо этого она объясняет странникам силу розы Элиля, которая в том числе способна перенести их обратно к Джадур.
Здесь Хасан возглавляет повстанцев и нападает на дворец халифа. Роза Элиля помогает им превратить обычные ковры в летающие. Но и Алказар способен на подобное, в итоге между восставiими и приспешниками волшебника разворачивается настоящий воздушный бой. Хасану и Маджиду удаётся проникнуть в место, где хранится зеркало Луны, и освободить душу чародея. Алказар погибает, и ликующий народ объявляет принца халифом Джадура. Юноша и Зулейра наконец-то соединяются.

Содержание торрента
  • Arabian Adventure [1979,DVDRip,Ирэн,english].avi

Похожие торренты
Свой комментарий