(Score)

Хоббит: Пустошь Смауга

/ The Hobbit: The Desolation of Smaug (by Howard Shore) [Special Edition] - 2013, FLAC (tracks+.cue), lossless
636.7 МБ 1 сид / 0 личей

Хоббит: Пустошь Смауга / The Hobbit: The Desolation of Smaug-- -Жанр: Score || Композитор: Howard Shore || Год выпуска диска: 2013 || Страна-производитель диска: США || Аудио кодек: FLAC (*.flac) || Тип рипа: tracks+.cue || Битрейт аудио: lossless || Продолжительность: 01:56:07 || Источник: What.cd (nazgul68) || Наличие сканов в содержимом раздачи: нет-Треклист:
Disc 1
01. The Quest for Erebor [03:23]
02. Wilderland [04:56]
03. A Necromancer (Bonus Track) [02:54]
04. The House of Beorn (Extended Version) [04:52]
05. Mirkwood (Extended Version) [05:31]
06. Flies and Spiders (Extended Version) [09:35]
07. The Woodland Realm (Extended Version) [05:15]
08. Feast of Starlight [02:48]
09. Barrels Out of Bond [01:50]
10. The Forest River (Extended Version) [05:10]
11. Bard, a Man of Lake–town (Extended Version) [03:18]
12. The High Fells (Extended Version) [03:38]
13. The Nature of Evil [03:20]
14. Protector of the Common Folk [03:37]
Disc 2
01. Thrice Welcome [03:34]
02. Girion, Lord of Dale (Extended Version) [04:15]
03. Durin's Folk (Extended Version) [03:04]
04. In the Shadow of the Mountain [02:15]
05. A Spell of Concealment (Extended Version) [03:22]
06. On the Doorstep [07:46]
07. The Courage of Hobbits [03:00]
08. Inside Information [03:48]
09. Kingsfoil [02:25]
10. A Liar and a Thief [03:41]
11. The Hunters (Extended Version) [09:55]
12. Smaug (Extended Version) [06:29]
13. My Armor Is Iron [05:16]
14. I See Fire written and performed by Ed Sheeran [05:00]
15. Beyond the Forest [05:27] Лог создания рипа CD1 Exact Audio Copy V1.0 beta 3 from 29. August 2011
EAC extraction logfile from 6. December 2013, 17:38
Howard Shore / The Hobbit - The Desolation of Smaug [Special Edition - Disc 1]
Used drive : HL-DT-STBD-RE BH10LS38 Adapter: 2 ID: 0
Read mode : Secure
Utilize accurate stream : Yes
Defeat audio cache : Yes
Make use of C2 pointers : No
Read offset correction : 667
Overread into Lead-In and Lead-Out : No
Fill up missing offset samples with silence : Yes
Delete leading and trailing silent blocks : No
Null samples used in CRC calculations : Yes
Used interface : Native Win32 interface for Win NT & 2000
Gap handling : Appended to previous track
Used output format : User Defined Encoder
Selected bitrate : 768 kBit/s
Quality : High
Add ID3 tag : No
Command line compressor : C:\Program Files (x86)\Exact Audio Copy\FLAC\FLAC.EXE
Additional command line options : -8 -V -T "ARTIST=%artist%" -T "TITLE=%title%" -T "ALBUM=%albumtitle%" -T "DATE=%year%" -T "TRACKNUMBER=%tracknr%" -T "GENRE=%genre%" -T "PERFORMER=%albuminterpret%" -T "COMPOSER=%composer%" %haslyrics%--tag-from-file=LYRICS="%lyricsfile%"%haslyrics% -T "ALBUMARTIST=%albumartist%" -T "ALBUM ARTIST=%albumartist%" -T "DISCNUMBER=%cdnumber%" -T "TOTALDISCS=%totalcds%" -T "TOTALTRACKS=%numtracks%" -T "COMMENT=%comment%" %source% -o %dest%
TOC of the extracted CD
Track | Start | Length | Start sector | End sector
---------------------------------------------------------
1 | 0:00.00 | 3:23.56 | 0 | 15280
2 | 3:23.56 | 4:56.31 | 15281 | 37511
3 | 8:20.12 | 2:54.51 | 37512 | 50612
4 | 11:14.63 | 4:52.40 | 50613 | 72552
5 | 16:07.28 | 5:31.26 | 72553 | 97403
6 | 21:38.54 | 9:35.38 | 97404 | 140566
7 | 31:14.17 | 5:14.73 | 140567 | 164189
8 | 36:29.15 | 2:48.00 | 164190 | 176789
9 | 39:17.15 | 1:50.02 | 176790 | 185041
10 | 41:07.17 | 5:10.47 | 185042 | 208338
11 | 46:17.64 | 3:18.31 | 208339 | 223219
12 | 49:36.20 | 3:38.63 | 223220 | 239632
13 | 53:15.08 | 3:20.60 | 239633 | 254692
14 | 56:35.68 | 3:37.04 | 254693 | 270971
Track 1
Filename C:\Rips\01 - The Quest For Erebor.wav
Pre-gap length 0:00:02.00
Peak level 97.2 %
Extraction speed 1.1 X
Track quality 100.0 %
Test CRC ACFA42E4
Copy CRC ACFA42E4
Track not present in AccurateRip database
Copy OK
Track 2
Filename C:\Rips\02 - Wilderland.wav
Pre-gap length 0:00:02.19
Peak level 97.5 %
Extraction speed 1.3 X
Track quality 100.0 %
Test CRC E2EC3AB3
Copy CRC E2EC3AB3
Track not present in AccurateRip database
Copy OK
Track 3
Filename C:\Rips\03 - A Necromancer (Bonus Track).wav
Pre-gap length 0:00:02.22
Peak level 97.7 %
Extraction speed 1.3 X
Track quality 100.0 %
Test CRC 5231717E
Copy CRC 5231717E
Track not present in AccurateRip database
Copy OK
Track 4
Filename C:\Rips\04 - The House Of Beorn (Extended Version).wav
Pre-gap length 0:00:01.73
Peak level 97.4 %
Extraction speed 1.5 X
Track quality 100.0 %
Test CRC 211FCB56
Copy CRC 211FCB56
Track not present in AccurateRip database
Copy OK
Track 5
Filename C:\Rips\05 - Mirkwood (Extended Version).wav
Pre-gap length 0:00:02.22
Peak level 88.3 %
Extraction speed 1.5 X
Track quality 99.9 %
Test CRC C2E546F2
Copy CRC C2E546F2
Track not present in AccurateRip database
Copy OK
Track 6
Filename C:\Rips\06 - Flies And Spiders (Extended Version).wav
Pre-gap length 0:00:02.16
Peak level 98.7 %
Extraction speed 1.9 X
Track quality 100.0 %
Test CRC 4726838D
Copy CRC 4726838D
Track not present in AccurateRip database
Copy OK
Track 7
Filename C:\Rips\07 - The Woodland Realm (Extended Version).wav
Pre-gap length 0:00:02.27
Peak level 97.2 %
Extraction speed 1.9 X
Track quality 100.0 %
Test CRC 799B4B7D
Copy CRC 799B4B7D
Track not present in AccurateRip database
Copy OK
Track 8
Filename C:\Rips\08 - Feast Of Starlight.wav
Pre-gap length 0:00:02.18
Peak level 48.0 %
Extraction speed 1.5 X
Track quality 99.9 %
Test CRC E1766484
Copy CRC E1766484
Track not present in AccurateRip database
Copy OK
Track 9
Filename C:\Rips\09 - Barrels Out Of Bond.wav
Pre-gap length 0:00:00.48
Peak level 97.2 %
Extraction speed 1.7 X
Track quality 100.0 %
Test CRC 0D348BDA
Copy CRC 0D348BDA
Track not present in AccurateRip database
Copy OK
Track 10
Filename C:\Rips\10 - The Forest River (Extended Version).wav
Pre-gap length 0:00:01.04
Peak level 97.6 %
Extraction speed 2.1 X
Track quality 100.0 %
Test CRC AAF58E56
Copy CRC AAF58E56
Track not present in AccurateRip database
Copy OK
Track 11
Filename C:\Rips\11 - Bard, A Man Of Lake-Town (Extended Version).wav
Pre-gap length 0:00:02.39
Peak level 95.3 %
Extraction speed 2.1 X
Track quality 100.0 %
Test CRC 64990EC6
Copy CRC 64990EC6
Track not present in AccurateRip database
Copy OK
Track 12
Filename C:\Rips\12 - The High Fells (Extended Version).wav
Pre-gap length 0:00:02.37
Peak level 97.4 %
Extraction speed 2.1 X
Track quality 100.0 %
Test CRC A3096606
Copy CRC A3096606
Track not present in AccurateRip database
Copy OK
Track 13
Filename C:\Rips\13 - The Nature Of Evil.wav
Pre-gap length 0:00:02.03
Peak level 97.5 %
Extraction speed 2.2 X
Track quality 100.0 %
Test CRC 9B69A31A
Copy CRC 9B69A31A
Track not present in AccurateRip database
Copy OK
Track 14
Filename C:\Rips\14 - Protector Of The Common Folk.wav
Pre-gap length 0:00:03.26
Peak level 91.2 %
Extraction speed 2.2 X
Track quality 100.0 %
Test CRC 4AFCE62F
Copy CRC 4AFCE62F
Track not present in AccurateRip database
Copy OK
None of the tracks are present in the AccurateRip database
No errors occurred
End of status report
==== Log checksum 175375D0FA3D834836836D59EB79EDEE87D0D207DF7A1561F59213DD6E10131D ==== Содержание индексной карты (.CUE) CD1 REM GENRE Soundtrack
REM DATE 2013
REM DISCID E70E1C0E
REM COMMENT "ExactAudioCopy v1.0b3"
FILE "01 - The Quest For Erebor.wav" WAVE
TRACK 01 AUDIO
INDEX 01 00:00:00
TRACK 02 AUDIO
INDEX 00 03:21:37
FILE "02 - Wilderland.wav" WAVE
INDEX 01 00:00:00
TRACK 03 AUDIO
INDEX 00 04:54:09
FILE "03 - A Necromancer (Bonus Track).wav" WAVE
INDEX 01 00:00:00
TRACK 04 AUDIO
INDEX 00 02:52:53
FILE "04 - The House Of Beorn (Extended Version).wav" WAVE
INDEX 01 00:00:00
TRACK 05 AUDIO
INDEX 00 04:50:18
FILE "05 - Mirkwood (Extended Version).wav" WAVE
INDEX 01 00:00:00
TRACK 06 AUDIO
INDEX 00 05:29:10
FILE "06 - Flies And Spiders (Extended Version).wav" WAVE
INDEX 01 00:00:00
TRACK 07 AUDIO
INDEX 00 09:33:11
FILE "07 - The Woodland Realm (Extended Version).wav" WAVE
INDEX 01 00:00:00
TRACK 08 AUDIO
INDEX 00 05:12:55
FILE "08 - Feast Of Starlight.wav" WAVE
INDEX 01 00:00:00
TRACK 09 AUDIO
INDEX 00 02:47:27
FILE "09 - Barrels Out Of Bond.wav" WAVE
INDEX 01 00:00:00
TRACK 10 AUDIO
INDEX 00 01:48:73
FILE "10 - The Forest River (Extended Version).wav" WAVE
INDEX 01 00:00:00
TRACK 11 AUDIO
INDEX 00 05:08:08
FILE "11 - Bard, A Man Of Lake-Town (Extended Version).wav" WAVE
INDEX 01 00:00:00
TRACK 12 AUDIO
INDEX 00 03:15:69
FILE "12 - The High Fells (Extended Version).wav" WAVE
INDEX 01 00:00:00
TRACK 13 AUDIO
INDEX 00 03:36:60
FILE "13 - The Nature Of Evil.wav" WAVE
INDEX 01 00:00:00
TRACK 14 AUDIO
INDEX 00 03:17:34
FILE "14 - Protector Of The Common Folk.wav" WAVE
INDEX 01 00:00:00 Лог создания рипа CD2 Exact Audio Copy V1.0 beta 3 from 29. August 2011
EAC extraction logfile from 6. December 2013, 19:03
Howard Shore / The Hobbit - The Desolation of Smaug [Special Edition - Disc 2]
Used drive : HL-DT-STBD-RE BH10LS38 Adapter: 2 ID: 0
Read mode : Secure
Utilize accurate stream : Yes
Defeat audio cache : Yes
Make use of C2 pointers : No
Read offset correction : 667
Overread into Lead-In and Lead-Out : No
Fill up missing offset samples with silence : Yes
Delete leading and trailing silent blocks : No
Null samples used in CRC calculations : Yes
Used interface : Native Win32 interface for Win NT & 2000
Gap handling : Appended to previous track
Used output format : User Defined Encoder
Selected bitrate : 768 kBit/s
Quality : High
Add ID3 tag : No
Command line compressor : C:\Program Files (x86)\Exact Audio Copy\FLAC\FLAC.EXE
Additional command line options : -8 -V -T "ARTIST=%artist%" -T "TITLE=%title%" -T "ALBUM=%albumtitle%" -T "DATE=%year%" -T "TRACKNUMBER=%tracknr%" -T "GENRE=%genre%" -T "PERFORMER=%albuminterpret%" -T "COMPOSER=%composer%" %haslyrics%--tag-from-file=LYRICS="%lyricsfile%"%haslyrics% -T "ALBUMARTIST=%albumartist%" -T "ALBUM ARTIST=%albumartist%" -T "DISCNUMBER=%cdnumber%" -T "TOTALDISCS=%totalcds%" -T "TOTALTRACKS=%numtracks%" -T "COMMENT=%comment%" %source% -o %dest%
TOC of the extracted CD
Track | Start | Length | Start sector | End sector
---------------------------------------------------------
1 | 0:00.00 | 3:34.22 | 0 | 16071
2 | 3:34.22 | 4:15.60 | 16072 | 35256
3 | 7:50.07 | 3:04.34 | 35257 | 49090
4 | 10:54.41 | 2:15.53 | 49091 | 59268
5 | 13:10.19 | 3:22.44 | 59269 | 74462
6 | 16:32.63 | 7:46.24 | 74463 | 109436
7 | 24:19.12 | 3:00.23 | 109437 | 122959
8 | 27:19.35 | 3:48.21 | 122960 | 140080
9 | 31:07.56 | 2:25.69 | 140081 | 151024
10 | 33:33.50 | 3:41.17 | 151025 | 167616
11 | 37:14.67 | 9:55.41 | 167617 | 212282
12 | 47:10.33 | 6:29.49 | 212283 | 241506
13 | 53:40.07 | 5:16.17 | 241507 | 265223
14 | 58:56.24 | 5:00.63 | 265224 | 287786
15 | 63:57.12 | 5:27.62 | 287787 | 312373
Track 1
Filename C:\Rips\01 - Howard Shore - Thrice Welcome.wav
Pre-gap length 0:00:02.00
Peak level 97.3 %
Extraction speed 1.1 X
Track quality 100.0 %
Test CRC A442594D
Copy CRC A442594D
Track not present in AccurateRip database
Copy OK
Track 2
Filename C:\Rips\02 - Howard Shore - Girion, Lord Of Dale (Extended Version).wav
Pre-gap length 0:00:02.04
Peak level 97.2 %
Extraction speed 1.2 X
Track quality 100.0 %
Test CRC FF679453
Copy CRC FF679453
Track not present in AccurateRip database
Copy OK
Track 3
Filename C:\Rips\03 - Howard Shore - Durin's Folk (Extended Version).wav
Pre-gap length 0:00:02.64
Peak level 97.2 %
Extraction speed 1.3 X
Track quality 100.0 %
Test CRC 0FDB2656
Copy CRC 0FDB2656
Track not present in AccurateRip database
Copy OK
Track 4
Filename C:\Rips\04 - Howard Shore - In The Shadow Of The Mountain.wav
Pre-gap length 0:00:03.22
Peak level 90.5 %
Extraction speed 1.2 X
Track quality 100.0 %
Test CRC C177AB21
Copy CRC C177AB21
Track not present in AccurateRip database
Copy OK
Track 5
Filename C:\Rips\05 - Howard Shore - A Spell Of Concealment (Extended Version).wav
Pre-gap length 0:00:02.53
Peak level 98.5 %
Extraction speed 1.4 X
Track quality 100.0 %
Test CRC 6C6BA71E
Copy CRC 6C6BA71E
Track not present in AccurateRip database
Copy OK
Track 6
Filename C:\Rips\06 - Howard Shore - On The Doorstep.wav
Pre-gap length 0:00:00.58
Peak level 96.3 %
Extraction speed 1.7 X
Track quality 100.0 %
Test CRC 447C68BD
Copy CRC 447C68BD
Track not present in AccurateRip database
Copy OK
Track 7
Filename C:\Rips\07 - Howard Shore - The Courage Of Hobbits.wav
Pre-gap length 0:00:00.10
Peak level 74.4 %
Extraction speed 1.6 X
Track quality 100.0 %
Test CRC E74830E3
Copy CRC E74830E3
Track not present in AccurateRip database
Copy OK
Track 8
Filename C:\Rips\08 - Howard Shore - Inside Information.wav
Pre-gap length 0:00:00.25
Peak level 98.5 %
Extraction speed 1.7 X
Track quality 100.0 %
Test CRC 92D785E4
Copy CRC 92D785E4
Track not present in AccurateRip database
Copy OK
Track 9
Filename C:\Rips\09 - Howard Shore - Kingsfoil.wav
Pre-gap length 0:00:01.74
Peak level 44.0 %
Extraction speed 1.7 X
Track quality 100.0 %
Test CRC AAEEF552
Copy CRC AAEEF552
Track not present in AccurateRip database
Copy OK
Track 10
Filename C:\Rips\10 - Howard Shore - A Liar And A Thief.wav
Pre-gap length 0:00:03.21
Peak level 97.4 %
Extraction speed 1.8 X
Track quality 100.0 %
Test CRC 698E0E42
Copy CRC 698E0E42
Track not present in AccurateRip database
Copy OK
Track 11
Filename C:\Rips\11 - Howard Shore - The Hunters (Extended Version).wav
Pre-gap length 0:00:01.31
Peak level 98.8 %
Extraction speed 2.2 X
Track quality 100.0 %
Test CRC C39B8277
Copy CRC C39B8277
Track not present in AccurateRip database
Copy OK
Track 12
Filename C:\Rips\12 - Howard Shore - Smaug (Extended Version).wav
Pre-gap length 0:00:04.23
Peak level 97.8 %
Extraction speed 2.2 X
Track quality 100.0 %
Test CRC F691E92B
Copy CRC F691E92B
Track not present in AccurateRip database
Copy OK
Track 13
Filename C:\Rips\13 - Howard Shore - My Armor Is Iron.wav
Pre-gap length 0:00:02.60
Peak level 97.5 %
Extraction speed 2.3 X
Track quality 100.0 %
Test CRC E9296E97
Copy CRC E9296E97
Track not present in AccurateRip database
Copy OK
Track 14
Filename C:\Rips\14 - Ed Sheeran - I See Fire.wav
Pre-gap length 0:00:04.55
Peak level 56.4 %
Extraction speed 2.3 X
Track quality 100.0 %
Test CRC 54887BAB
Copy CRC 54887BAB
Track not present in AccurateRip database
Copy OK
Track 15
Filename C:\Rips\15 - Howard Shore - Beyond The Forest.wav
Pre-gap length 0:00:02.51
Peak level 97.4 %
Extraction speed 2.5 X
Track quality 100.0 %
Test CRC 10BC11AC
Copy CRC 10BC11AC
Track not present in AccurateRip database
Copy OK
None of the tracks are present in the AccurateRip database
No errors occurred
End of status report
==== Log checksum 80F37FCDDDA529E7E4969F7AF6965BFA42404574DBC6E226B004B8952DB0055D ==== Содержание индексной карты (.CUE) REM GENRE Soundtrack
REM DATE 2013
REM DISCID D810440F
REM COMMENT "ExactAudioCopy v1.0b3"
FILE "01 - Howard Shore - Thrice Welcome.wav" WAVE
TRACK 01 AUDIO
INDEX 01 00:00:00
TRACK 02 AUDIO
INDEX 00 03:32:18
FILE "02 - Howard Shore - Girion, Lord Of Dale (Extended Version).wav" WAVE
INDEX 01 00:00:00
TRACK 03 AUDIO
INDEX 00 04:12:71
FILE "03 - Howard Shore - Durin's Folk (Extended Version).wav" WAVE
INDEX 01 00:00:00
TRACK 04 AUDIO
INDEX 00 03:01:12
FILE "04 - Howard Shore - In The Shadow Of The Mountain.wav" WAVE
INDEX 01 00:00:00
TRACK 05 AUDIO
INDEX 00 02:13:00
FILE "05 - Howard Shore - A Spell Of Concealment (Extended Version).wav" WAVE
INDEX 01 00:00:00
TRACK 06 AUDIO
INDEX 00 03:21:61
FILE "06 - Howard Shore - On The Doorstep.wav" WAVE
INDEX 01 00:00:00
TRACK 07 AUDIO
INDEX 00 07:46:14
FILE "07 - Howard Shore - The Courage Of Hobbits.wav" WAVE
INDEX 01 00:00:00
TRACK 08 AUDIO
INDEX 00 02:59:73
FILE "08 - Howard Shore - Inside Information.wav" WAVE
INDEX 01 00:00:00
TRACK 09 AUDIO
INDEX 00 03:46:22
FILE "09 - Howard Shore - Kingsfoil.wav" WAVE
INDEX 01 00:00:00
TRACK 10 AUDIO
INDEX 00 02:22:48
FILE "10 - Howard Shore - A Liar And A Thief.wav" WAVE
INDEX 01 00:00:00
TRACK 11 AUDIO
INDEX 00 03:39:61
FILE "11 - Howard Shore - The Hunters (Extended Version).wav" WAVE
INDEX 01 00:00:00
TRACK 12 AUDIO
INDEX 00 09:51:18
FILE "12 - Howard Shore - Smaug (Extended Version).wav" WAVE
INDEX 01 00:00:00
TRACK 13 AUDIO
INDEX 00 06:26:64
FILE "13 - Howard Shore - My Armor Is Iron.wav" WAVE
INDEX 01 00:00:00
TRACK 14 AUDIO
INDEX 00 05:11:37
FILE "14 - Ed Sheeran - I See Fire.wav" WAVE
INDEX 01 00:00:00
TRACK 15 AUDIO
INDEX 00 04:58:12
FILE "15 - Howard Shore - Beyond The Forest.wav" WAVE
INDEX 01 00:00:00 -

Пожаловаться...
Содержание торрента