Стрела

/ Arrow / Сезон: 1 / Серии: 1-2 (?) (Дэвид Баррет) [2012, фантастика, боевик, драма, детектив, приключения, WEB-DL 1080p] MVO LostFilm
3.5 ГБ 0 сидов / 0 личей
0 оценок видео
0 оценок аудио
Стрела / Arrow / Сезон: 1 / Серии: 1-2 (?) (Дэвид Баррет) [2012, фантастика, боевик, драма, детектив, приключения, WEB-DL 1080p] MVO LostFilm

-Стрела / Arrow
Сезон 1 / Season 1- Год выпуска: 2012
Страна: США
Жанр: фантастика, боевик, драма, детектив, приключения
Продолжительность серии: ~00:43:00
Перевод: Профессиональный многоголосый закадровый - LostFilm
Режиссёр: Дэвид Баррет
В ролях: Стивен Амелл, Эмили Бетт Рикардс, Кэти Кэссиди, Уилла Холлэнд, Джейми Шеридан, Жаклин МакИннес Вуд, Колин Сэлмон, Кэтлин Гати, Пол Блекторн, Сюзанна Томпсон
Описание: После кораблекрушения, плейбой миллиардер Оливер Куин пропадает и считается погибшим в течение пяти лет, после чего его обнаруживают живым на затерянном острове в Тихом океане. Когда он возвращается домой в Старлинг-Сити, его преданная мать Мойра, столь любимая сестра Теа, и лучший друг Томми приветствуют его дома, но они видят, что Оливер изменился после испытаний на острове. Хотя Оливер скрывает правду о человеке, которым он стал...
Все раздачи сериала
Сэмпл: http://multi-up.com/774536
Качество: WEB-DL 1080p
Формат: MKV
Видео кодек: H.264
Аудио кодек: AC3
Видео: 1920x1080 at 23.976 fps, MPEG-4 AVC, ~5000 kbps avg, 0.10 bit/pixel
Аудио #1: Русский: 48 kHz, AC3, 3/2 (L,C,R,l,r) + LFE ch, ~384 kbps avg |Многоголосый закадровый, LostFilm|
Аудио #2: Английский: 48 kHz, AC3, 3/2 (L,C,R,l,r) + LFE ch, ~384.00 kbps avg
Субтитры: Английские Список серий 01: Pilot / Пилот
02: Honor Thy Father / Чти отца своего MI Код: General
Complete name                            : Arrow.S01E02.1080p.WEB-DL.Rus.Eng.HDCLUB.mkv
Format                                   : Matroska
Format version                           : Version 2
File size                                : 1.76 GiB
Duration                                 : 42mn 26s
Overall bit rate                         : 5 922 Kbps
Movie name                               : Arrow [Season 1] (2012) - Release for HDCLUB
Encoded date                             : UTC 2012-10-20 18:39:54
Writing application                      : mkvmerge v5.8.0 ('No Sleep / Pillow') built on Sep  2 2012 15:37:04
Writing library                          : libebml v1.2.3 + libmatroska v1.3.0
Video
ID                                       : 1
Format                                   : AVC
Format/Info                              : Advanced Video Codec
Format profile                           : High@L4.0
Format settings, CABAC                   : Yes
Format settings, ReFrames                : 4 frames
Codec ID                                 : V_MPEG4/ISO/AVC
Duration                                 : 42mn 26s
Bit rate                                 : 5 037 Kbps
Width                                    : 1 920 pixels
Height                                   : 1 080 pixels
Display aspect ratio                     : 16:9
Frame rate                               : 23.976 fps
Color space                              : YUV
Chroma subsampling                       : 4:2:0
Bit depth                                : 8 bits
Scan type                                : Progressive
Bits/(Pixel*Frame)                       : 0.101
Stream size                              : 1.49 GiB (85%)
Title                                    : Arrow 1x02: Honor Thy Father / Чти отца своего - Release for HDCLUB
Language                                 : English
Default                                  : Yes
Forced                                   : No
Color primaries                          : BT.709-5, BT.1361, IEC 61966-2-4, SMPTE RP177
Transfer characteristics                 : BT.709-5, BT.1361
Matrix coefficients                      : BT.709-5, BT.1361, IEC 61966-2-4 709, SMPTE RP177
Audio #1
ID                                       : 2
Format                                   : AC-3
Format/Info                              : Audio Coding 3
Mode extension                           : CM (complete main)
Format settings, Endianness              : Big
Codec ID                                 : A_AC3
Duration                                 : 42mn 26s
Bit rate mode                            : Constant
Bit rate                                 : 384 Kbps
Channel(s)                               : 6 channels
Channel positions                        : Front: L C R, Side: L R, LFE
Sampling rate                            : 48.0 KHz
Bit depth                                : 16 bits
Compression mode                         : Lossy
Stream size                              : 117 MiB (6%)
Title                                    : LostFilm
Language                                 : Russian
Default                                  : Yes
Forced                                   : No
Audio #2
ID                                       : 3
Format                                   : AC-3
Format/Info                              : Audio Coding 3
Mode extension                           : CM (complete main)
Format settings, Endianness              : Big
Codec ID                                 : A_AC3
Duration                                 : 42mn 26s
Bit rate mode                            : Constant
Bit rate                                 : 384 Kbps
Channel(s)                               : 6 channels
Channel positions                        : Front: L C R, Side: L R, LFE
Sampling rate                            : 48.0 KHz
Bit depth                                : 16 bits
Compression mode                         : Lossy
Stream size                              : 117 MiB (6%)
Language                                 : English
Default                                  : No
Forced                                   : No
Text
ID                                       : 4
Format                                   : UTF-8
Codec ID                                 : S_TEXT/UTF8
Codec ID/Info                            : UTF-8 Plain Text
Language                                 : English
Default                                  : No
Forced                                   : No

Содержание торрента
  • Arrow.S01.1080p.WEB-DL.Rus.Eng.HDCLUB
    • Arrow.S01E01.1080p.WEB-DL.Rus.Eng.HDCLUB.mkv
    • Arrow.S01E02.1080p.WEB-DL.Rus.Eng.HDCLUB.mkv

Похожие торренты
Свой комментарий