Лыжный патруль

/ Ski Patrol (Ричард Коррелл / Richard Correll) [1990, США, комедия, HDTVRip-AVC] AVO(Михалев) + DVO(НТВ+) + MVO + Original Eng
0 оценок видео
0 оценок аудио

Лыжный патруль / Ski Patrol
Страна: США
Жанр: комедия
Год выпуска: 1990
Продолжительность: 01:27:56
Перевод: Авторский (одноголосый закадровый): (Алексей Михалев) / профессиональный (двухголосый закадровый): (НТВ+) / профессиональный (многоголосый закадровый)
Cубтитры: нет
Оригинальная аудиодорожка: английская дорожка
Режиссер: Ричард Коррелл / Richard Correll
В ролях: Роджер Роуз / Roger Rose, Иветт Нипар / Yvette Nipar, Т.К. Картер / T.K. Carter, Лесли Джордан / Leslie Jordan, Шон Грегори Салливан / Sean Gregory Sullivan
Описание: Главные герои — кучка недотеп и болванов, вызывающие смех каждым своим шагом. В лыжном патруле их семеро, вместе с предводителем-коротышкой, и они несут службу на горнолыжном курорте. Никто еще не подозревает, какая угроза нависла над мирными снежными склонами!
Алчный предприниматель Марис замышляет диверсию. Его цель — подорвать репутацию курорта в глазах отдыхающих, обанкротить его и прибрать к рукам, а потом построить в этом живописном месте свой современный центр отдыха. Лыжный патруль должен сорвать диверсию Мариса и помешать осуществлению коварного плана!
Рейтинг:
Kинопоиск- 6.431 (98)
IMDB - 4.60/10 (2 054)
Качество видео: HDTVRip-AVC
Формат видео: MKV
Видео: 1280x720 (16:9) / 25 fps / H.264 / 3 326 kbps / 0.144 bit/pixel
Аудио 1: Russian (Dolby AC3, 192 Kbps, 2 ch) - Алексей Михалев
Аудио 2: Russian (Dolby AC3, 192 Kbps, 2 ch) - DVO (НТВ+)
Аудио 3: Russian (Dolby AC3, 192 Kbps, 2 ch) - MVO
Аудио 4: English (Dolby AC3, 192 Kbps, 2 ch)
Дополнительная информация:
HDTVRip с Михалевым, многоголосым переводом и оригинальной дорожкой из сети
Двухголосый перевод (НТВ+) из раздачи от DougRoss. Автору раздачи Огромное Спасибо!
В дорожке с Михалевым английская речь идёт с эхом, поэтому создаётся некоторый дискомфорт при прослушивании. Просьба ознакомиться с сэмплом! MediaInfo General
Unique ID : 187745528935254344693076672124595514829 (0x8D3E793E8353DEDC972E01427D64ADCD)
Complete name : C:\TORRENT\Ski Patrol.mkv
Format : Matroska
Format version : Version 2
File size : 2.52 GiB
Duration : 1h 27mn
Overall bit rate mode : Variable
Overall bit rate : 4 097 Kbps
Encoded date : UTC 2012-05-07 17:20:51
Writing application : mkvmerge v5.2.0 ('I can't explain') built on Dec 18 2011 18:12:03
Writing library : libebml v1.2.3 + libmatroska v1.3.0
Video
ID : 1
Format : AVC
Format/Info : Advanced Video Codec
Format profile : High@L4.1
Format settings, CABAC : Yes
Format settings, ReFrames : 3 frames
Codec ID : V_MPEG4/ISO/AVC
Duration : 1h 27mn
Bit rate mode : Variable
Bit rate : 3 326 Kbps
Maximum bit rate : 40.0 Mbps
Width : 1 280 pixels
Height : 720 pixels
Display aspect ratio : 16:9
Frame rate : 25.000 fps
Color space : YUV
Chroma subsampling : 4:2:0
Bit depth : 8 bits
Scan type : Progressive
Bits/(Pixel*Frame) : 0.144
Stream size : 1.99 GiB (79%)
Writing library : x264 core 66 r1109M 75b495f
Encoding settings : cabac=1 / ref=3 / deblock=1:0:0 / analyse=0x3:0x133 / me=umh / subme=6 / psy_rd=1.0:0.0 / mixed_ref=1 / me_range=24 / chroma_me=1 / trellis=1 / 8x8dct=1 / cqm=0 / deadzone=21,11 / chroma_qp_offset=-2 / threads=6 / nr=0 / decimate=1 / mbaff=0 / bframes=3 / b_pyramid=1 / b_adapt=1 / b_bias=0 / direct=1 / wpredb=1 / keyint=250 / keyint_min=25 / scenecut=40(pre) / rc=2pass / bitrate=3326 / ratetol=1.0 / qcomp=0.60 / qpmin=1 / qpmax=51 / qpstep=4 / cplxblur=20.0 / qblur=0.5 / ip_ratio=1.40 / pb_ratio=1.30 / aq=1:1.0
Default : Yes
Forced : No
Audio #1
ID : 2
Format : AC-3
Format/Info : Audio Coding 3
Mode extension : CM (complete main)
Muxing mode : Header stripping
Codec ID : A_AC3
Duration : 1h 27mn
Bit rate mode : Constant
Bit rate : 192 Kbps
Channel(s) : 2 channels
Channel positions : Front: L R
Sampling rate : 48.0 KHz
Bit depth : 16 bits
Compression mode : Lossy
Stream size : 121 MiB (5%)
Title : AVO (Михалев)
Language : Russian
Default : Yes
Forced : No
Audio #2
ID : 3
Format : AC-3
Format/Info : Audio Coding 3
Mode extension : CM (complete main)
Muxing mode : Header stripping
Codec ID : A_AC3
Duration : 1h 27mn
Bit rate mode : Constant
Bit rate : 192 Kbps
Channel(s) : 2 channels
Channel positions : Front: L R
Sampling rate : 48.0 KHz
Bit depth : 16 bits
Compression mode : Lossy
Stream size : 121 MiB (5%)
Title : DVO (НТВ+)
Language : Russian
Default : No
Forced : No
Audio #3
ID : 4
Format : AC-3
Format/Info : Audio Coding 3
Mode extension : CM (complete main)
Muxing mode : Header stripping
Codec ID : A_AC3
Duration : 1h 27mn
Bit rate mode : Constant
Bit rate : 192 Kbps
Channel(s) : 2 channels
Channel positions : Front: L R
Sampling rate : 48.0 KHz
Bit depth : 16 bits
Compression mode : Lossy
Stream size : 121 MiB (5%)
Title : MVO
Language : Russian
Default : No
Forced : No
Audio #4
ID : 5
Format : AC-3
Format/Info : Audio Coding 3
Mode extension : CM (complete main)
Muxing mode : Header stripping
Codec ID : A_AC3
Duration : 1h 27mn
Bit rate mode : Constant
Bit rate : 192 Kbps
Channel(s) : 2 channels
Channel positions : Front: L R
Sampling rate : 48.0 KHz
Bit depth : 16 bits
Compression mode : Lossy
Stream size : 121 MiB (5%)
Title : Original
Language : English
Default : No
Forced : No Сэмпл http://multi-up.com/699045 Скриншот c названием фильма Скриншоты ajax.get_info_hash = function(){ ajax.exec({ action : 'get_info_hash', topic_id : 4051625, t_hash : 'f2cb5f84a9e3056a507a504d8bc7c7f2' }); } ajax.callback.get_info_hash = function(data){ $('#tor-ih').html(data.ih_hex.toUpperCase()); }

Пожаловаться...
Содержание торрента
  • Ski Patrol.mkv

Похожие торренты
Свой комментарий