Голодные Игры

/ The Hunger Games (Гэри Росс / Gary Ross) [2012, США, боевик, триллер, фантастика, TeleSynch] Dub
1.4 ГБ 6 сидов / 1 лич
2 понравилось, 1 — нет
Голодные Игры / The Hunger Games (Гэри Росс / Gary Ross) [2012, США, боевик, триллер, фантастика, TeleSynch] Dub

Голодные Игры / The Hunger Games
Страна: США
Жанр: боевик, триллер, фантастика
Год выпуска: 2012
Продолжительность: 02:13:18
Перевод: Профессиональный (дублированный)
Cубтитры: вшитые (неотключаемые)
Режиссер: Гэри Росс / Gary Ross
В ролях: Дженнифер Лоуренс, Лиам Хемсворт, Джош Хатчерсон, Элизабет Бэнкс, Вуди Харрельсон, Стенли Туччи, Ленни Кравиц, Уэс Бентли, Дональд Сазерленд, Уиллоу Шилдс, Сандра Эллис Лэфферти, Паула Малкомсон, Рода Гриффис, Сандино Мойя, Рэйко Боуман, Дуэйн Бойд, Энтони Рейнольдс
Описание: Будущее. Деспотичное государство ежегодно устраивает показательные игры на выживание, за которыми в прямом эфире следит весь мир. Жребий участвовать в Играх выпадает юной Китнисс и тайно влюбленному в нее Питу. Они знакомы с детства, но теперь должны стать врагами. Ведь по нерушимому закону Голодных игр победить может только один из 24 участников. Судьям не важно кто выиграет, главное — зрелище. И на этот раз зрелище будет незабываемым.
Кинопоиск | IMDB | Сэмпл
Качество видео: TeleSynch
Формат видео: AVI
Видео: XviD, 640x272, 2.35:1, 25.000 fps, 1329 kb/s
Аудио: MP3, 48000 KHz, 128 kb/s (2 ch) MediaInfo General
Complete name : E:\Новое\Golodnye.igry.2012.XviD.TS.avi
Format : AVI
Format/Info : Audio Video Interleave
File size : 1.37 GiB
Duration : 2h 13mn
Overall bit rate : 1 468 Kbps
Writing application : VirtualDubMod 1.5.10.2 (build 2540/release)
Writing library : VirtualDubMod build 2540/release
Video
ID : 0
Format : MPEG-4 Visual
Codec ID : XVID
Codec ID/Hint : XviD
Duration : 2h 13mn
Source duration : 1h 43mn
Bit rate : 15.3 Mbps
Width : 640 pixels
Height : 272 pixels
Display aspect ratio : 2.35:1
Frame rate : 25.000 fps
Color space : YUV
Chroma subsampling : 4:2:0
Compression mode : Lossy
Bits/(Pixel*Frame) : 3.512
Stream size : 11.0 GiB
Audio
ID: 1
Format : MPEG Audio
Codec ID : 55
Codec ID/Hint : MP3
Duration : 2h 13mn
Bit rate : 128 Kbps
Channel(s) : 2 channels
Sampling rate : 48.0 KHz
Compression mode : Lossy
Stream size : 240 GiB
Alignment : Aligned on interleaves
Interleave, duration : 30 ms (0.76 video frame)
Interleave, preload duration : 492 ms

Скриншоты
  • Голодные Игры / The Hunger Games (Гэри Росс / Gary Ross) [2012, США, боевик, триллер, фантастика, TeleSynch] Dub
  • Голодные Игры / The Hunger Games (Гэри Росс / Gary Ross) [2012, США, боевик, триллер, фантастика, TeleSynch] Dub
  • Голодные Игры / The Hunger Games (Гэри Росс / Gary Ross) [2012, США, боевик, триллер, фантастика, TeleSynch] Dub
  • Голодные Игры / The Hunger Games (Гэри Росс / Gary Ross) [2012, США, боевик, триллер, фантастика, TeleSynch] Dub
  • Голодные Игры / The Hunger Games (Гэри Росс / Gary Ross) [2012, США, боевик, триллер, фантастика, TeleSynch] Dub
Содержание торрента
  • Golodnye.igry.2012.XviD.TS.avi

Похожие торренты